当前位置:
首页 > 剧情片 > [云中行走]The.Walk.2015.BluRay.720p.x264.AC3-Y4DG[中英文字幕]

[云中行走]The.Walk.2015.BluRay.720p.x264.AC3-Y4DG[中英文字幕]

[云中行走]The.Walk.2015.BluRay.720p.x264.AC3-Y4DG[中英文字幕]
◎译 名 云中行走/走钢索的人(台)/命悬一线(港)/偷天钢索人(新马)

◎片 名 The Walk

◎年 代 2015

◎国 家 美国

◎类 别 剧情/传记/冒险

◎语 言 英语

◎上映日期 2015-10-09(美国)

◎IMDb评分 7.6/10 from 25,681 users

◎片 长 123分钟

◎导 演 罗伯特·泽米吉斯 Robert Zemeckis

◎主 演 约瑟夫·高登-莱维特 Joseph Gordon-Levitt 饰 Philippe Petit

本·金斯利 Ben Kingsley 饰 Papa Rudy

夏洛特·勒邦 Charlotte Lebon 饰 Annie

詹姆斯·戴尔 James Badge Dale 饰 Jean-Pierre/J.P.

本·施瓦茨 Ben Schwartz 饰 Albert

史蒂夫·瓦伦丁 Steve Valentine 饰 Barry Greenhouse

马克·卡马乔 Mark Camacho 饰 Guy Tozolli

夸西·宋桂 Kwasi Songui 饰 Man with Plaid Sports Coat

帕翠西卡·图拉斯内 Patricia Tulasne

克莱门特·史鲍尼 Clément Sibony 饰 Jean-Louis

杰森·德里恩 Jason Deline 饰 Officer Tessio

拉里·戴 Larry Day 饰 Texas Tourist Man

梅兰莎·布莱克索恩 Melantha Blackthorne 饰

娜塔莉·希波蒂 Nathaly Thibault 饰 Secretary

塞尔吉奥·齐奥 Sergio Di Zio 饰 Officer Genco

凯瑟琳·勒米厄 Catherine Lemieux 饰 Texan Tourist Woman

菲利普·苏西 Philippe Soucy 饰 Notre Dame Police Officer #1

云中行走剧情介绍:

  从小喜爱杂技表演的菲利普·帕特(约瑟夫·高登-莱维特 Joseph Gordon-Levitt 饰),长大后成为法国杂技名人,他来到纽约,想要完成在摩天大厦之间走钢索的梦想,在遭遇了一系列的怀疑、误解、受伤之后,依然坚定地站在了世贸大楼之间的钢索之上。众目睽睽下,垫钢索的木 块突然碎裂,在众人的惊呼声中,400多米高空之上的他,是否可以完成自己的梦想?

◎幕后制作

创作背景

  《云中行走》是翻拍自曾在2009年纪录长片《走钢丝的人》,导演罗伯特·泽米吉斯不仅要改编成剧情片,还以3D的形式拍摄。借助视效特技、3D、IMAX技术,并结合大规模实景搭建。呈现1974年的情景,影片最初在2007年就设想呈现在大银幕上,在制作过程中也困难重重 。

◎获奖情况

第21届美国评论家选择电影奖 (2016)

最佳视觉效果(提名)

General

Unique ID : 220295256718659948900311209481571466314 (0xA5BB52BA187B9F38BE072AC2EEDCFC4A)

  Complete name : D:MKV影片压制&惊鸿一面云中行走.2015.中英字幕£Y4DG惊鸿一面[云中行走].The.Walk.2015.BluRay.720p.x264.AC3-Y4DG.mkv

Format : Matroska

Format version : Version 4/Version 2

File size : 4.04 GiB

Duration : 2h 3mn

Overall bit rate : 4 693 Kbps

Encoded date : UTC 2015-12-28 04:24:59

Writing application : mkvmerge v7.1.0 ('Good Love') 64bit built on Jul 27 2014 13:06:55

Writing library : libebml v1.3.0 + libmatroska v1.4.1

Attachements : msyh.ttc/simsun.ttc/文泉驿微米黑.ttc

DURATION : 01:57:11.890000000

NUMBER_OF_FRAMES : 3025

NUMBER_OF_BYTES : 205026

_STATISTICS_WRITING_APP : mkvmerge v7.1.0 ('Good Love') 64bit built on Jul 27 2014 13:06:55

_STATISTICS_WRITING_DATE_UTC : 2015-12-28 04:24:59

_STATISTICS_TAGS : BPS DURATION NUMBER_OF_FRAMES NUMBER_OF_BYTES

Video

ID : 1

Format : AVC

Format/Info : Advanced Video Codec

Format profile : [email protected]

Format settings, CABAC : Yes

Format settings, ReFrames : 8 frames

Codec ID : V_MPEG4/ISO/AVC

Duration : 2h 3mn

Bit rate : 4 000 Kbps

Width : 1 280 pixels

Height : 720 pixels

Display aspect ratio : 16:9

Frame rate mode : Constant

Frame rate : 23.976 fps

Color space : YUV

Chroma subsampling : 4:2:0

Bit depth : 8 bits

Scan type : Progressive

Bits/(Pixel*Frame) : 0.181

Stream size : 3.41 GiB (84%)

Writing library : x264 core 128 r2216+688+32 a17ff54 tMod [[email protected]:2:0 X86]

Encoding settings : cabac=1/ref=8/deblock=1:-3:-3/analyse=0x3:0x133/me=umh/subme=10/psy=1/fade_compensate=0.00/psy_rd=1.00:0.00/mixed_ref=1/me_range=48/chroma_me=1/trellis=2/8x8dct=1/cqm=0/deadzone=21,11/fast_pskip=0/chroma_qp_offset=-4/threads=6/lookahead_threads=1/sliced_threads=0/nr=0/decimate=1/interlaced=0/bluray_compat=0/constrained_intra=0/fgo=0/bframes=6/b_pyramid=2/b_adapt=2/b_bias=0/direct=1/weightb=1/open_gop=0/weightp=2/keyint=240/keyint_min=23/scenecut=40/intra_refresh=0/rc_lookahead=40/rc=2pass/mbtree=1/bitrate=4000/ratetol=1.0/qcomp=0.60/qpmin=0/qpmax=69/qpstep=4/cplxblur=20.0/qblur=0.5/vbv_maxrate=50000/vbv_bufsize=50000/nal_hrd=none/ip_ratio=1.40/aq=1:1.00

Language : English

Default : Yes

Forced : No

DURATION : 02:03:11.343000000

NUMBER_OF_FRAMES : 177215

NUMBER_OF_BYTES : 3695209219

_STATISTICS_WRITING_APP : mkvmerge v7.1.0 ('Good Love') 64bit built on Jul 27 2014 13:06:55

_STATISTICS_WRITING_DATE_UTC : 2015-12-28 04:24:59

_STATISTICS_TAGS : BPS DURATION NUMBER_OF_FRAMES NUMBER_OF_BYTES

Audio

ID : 2

Format : AC-3

Format/Info : Audio Coding 3

Mode extension : CM (complete main)

Format settings, Endianness : Big

Codec ID : A_AC3

Duration : 2h 3mn

Bit rate mode : Constant

Bit rate : 640 Kbps

Channel(s) : 6 channels

Channel positions : Front: L C R, Side: L R, LFE

Sampling rate : 48.0 KHz

Compression mode : Lossy

Stream size : 564 MiB (14%)

Default : Yes

Forced : No

Text #1

ID : 3

Format : ASS

Codec ID : S_TEXT/ASS

Codec ID/Info : Advanced Sub Station Alpha

Compression mode : Lossless

Title : 中上英下字幕ASS

Default : Yes

Forced : Yes

Text #2

ID : 4

Format : ASS

Codec ID : S_TEXT/ASS

Codec ID/Info : Advanced Sub Station Alpha

Compression mode : Lossless

Title : 简体中文字幕ASS

Default : No

Forced : No

[云中行走]The.Walk.2015.BluRay.720p.x264.AC3-Y4DG[中英文字幕]

[云中行走]The.Walk.2015.BluRay.720p.x264.AC3-Y4DG[中英文字幕]

[云中行走]The.Walk.2015.BluRay.720p.x264.AC3-Y4DG[中英文字幕]

[云中行走]The.Walk.2015.BluRay.720p.x264.AC3-Y4DG[中英文字幕]

云中行走下载地址:

注意:磁力链接请使用迅雷、BitComet、Utorrent等下载软件打开下载。
如果上方未显示下载链接,说明该资源受到用户投诉或者受版权方要求保护,不提供分享下载。

[云中行走]The.Walk.2015.BluRay.720p.x264.AC3-Y4DG[中英文字幕]:等您坐沙发呢!

发表评论

您必须 [ 登录 ] 才能发表留言!

二人好友斗地主可以吗 浙江快乐12 幸运飞艇直播 股票配资平台 贵州今天11选5开 广东南粤36选7历 3d开机号 海立配资 多乐彩 免费股票推荐微信群 股票涨跌的影响 湖北彩票开奖30选5 甘肃十一选五遗漏数 巨款大冲击 山东十一选五*遗漏 融正配资 30选5怎么中奖